Crows Zero I & II and Yatterman (JP) - High-Def Digest Forums
Reply
 
Thread Tools Search this Thread Display Modes
  #1  
Old 10-13-2009, 08:38 PM
kannisto's Avatar
Senior Member
Thread Starter
 
Join Date: Jan 2007
Posts: 5,590
Default Crows Zero I & II and Yatterman (JP)

Got all of these Takashi Miike Japan releases recently. All are region free and none are English friendly but English subs are available externally for all of them.

Crows Zero:


Crows Zero II:


Yatterman:




Will add BD info scans and some screencaps afterwards.
Reply With Quote
  #2  
Old 10-13-2009, 08:46 PM
kannisto's Avatar
Senior Member
Thread Starter
 
Join Date: Jan 2007
Posts: 5,590
Default Crows Zero BD info scan

Code:
                                                                                                                Total   Video                                             
Title                                                           Codec   Length  Movie Size      Disc Size       Bitrate Bitrate Main Audio Track                          Secondary Audio Track
-----                                                           ------  ------- --------------  --------------  ------- ------- ------------------                        ---------------------
(JP) Crows Zero                                                 AVC     2:09:57 43,535,762,496  45,729,083,040  44.67   39.50   Dolby TrueHD 5.1 1655Kbps (48kHz/16-bit)
Code:
DISC INFO:

Disc Title:     CROWS_ZERO_BD
Disc Size:      45,729,083,040 bytes
Protection:     AACS
BD-Java:        No
BDInfo:         0.5.2

PLAYLIST REPORT:

Name:                   00002.MPLS
Size:                   43,535,762,496 bytes
Length:                 2:09:57 (h:m:s)
Total Bitrate:          44.67 Mbps
Description:            

VIDEO:

Codec                   Bitrate             Description     
-----                   -------             -----------     
MPEG-4 AVC Video        39499 kbps          1080p / 23.976 fps / 16:9 / High Profile 4.1

AUDIO:

Codec                           Language        Bitrate         Description     
-----                           --------        -------         -----------     
Dolby TrueHD Audio              Japanese        1655 kbps       5.1 / 48 kHz / 1655 kbps / 16-bit (AC3 Core: 5.1 / 48 kHz / 640 kbps)

SUBTITLES:

Codec                           Language        Bitrate         Description     
-----                           --------        -------         -----------     
Presentation Graphics           Japanese        28.630 kbps                     

FILES:

Name            Time In         Length          Size            Total Bitrate   
----            -------         ------          ----            -------------   
00002.M2TS      0:00:00.000     2:09:57.080     43,535,762,496  44,669          

CHAPTERS:

Number          Time In         Length          Avg Video Rate  Max 1-Sec Rate  Max 1-Sec Time  Max 5-Sec Rate  Max 5-Sec Time  Max 10Sec Rate  Max 10Sec Time  Avg Frame Size  Max Frame Size  Max Frame Time  
------          -------         ------          --------------  --------------  --------------  --------------  --------------  --------------  --------------  --------------  --------------  --------------  
1               0:00:00.000     0:02:31.109     39,628 kbps     46,233 kbps     00:01:46.856    42,713 kbps     00:02:26.104    42,103 kbps     00:00:28.528    206,489 bytes   561,161 bytes   00:01:27.295    
2               0:02:31.109     0:03:44.933     39,510 kbps     46,534 kbps     00:04:45.451    41,632 kbps     00:04:26.057    40,728 kbps     00:04:25.556    205,986 bytes   444,674 bytes   00:05:20.820    
3               0:06:16.042     0:06:39.774     39,469 kbps     49,438 kbps     00:10:46.395    43,551 kbps     00:10:50.900    41,549 kbps     00:10:44.977    205,773 bytes   489,222 bytes   00:12:21.532    
4               0:12:55.816     0:07:37.832     39,521 kbps     50,270 kbps     00:13:59.088    44,386 kbps     00:13:44.865    41,952 kbps     00:13:39.985    206,046 bytes   475,112 bytes   00:19:00.514    
5               0:20:33.649     0:03:21.701     39,483 kbps     47,844 kbps     00:23:34.913    43,024 kbps     00:23:33.036    41,261 kbps     00:23:28.031    205,845 bytes   526,629 bytes   00:20:37.611    
6               0:23:55.350     0:07:48.843     39,479 kbps     47,872 kbps     00:28:51.104    42,852 kbps     00:28:49.811    41,187 kbps     00:27:55.090    205,827 bytes   530,108 bytes   00:31:44.152    
7               0:31:44.193     0:06:02.028     39,511 kbps     48,070 kbps     00:35:12.985    43,022 kbps     00:33:00.478    41,364 kbps     00:33:08.361    205,991 bytes   552,271 bytes   00:35:51.023    
8               0:37:46.222     0:08:53.783     39,518 kbps     48,428 kbps     00:38:17.211    41,973 kbps     00:38:41.861    41,249 kbps     00:38:41.861    206,029 bytes   523,884 bytes   00:38:42.236    
9               0:46:40.005     0:08:57.036     39,487 kbps     48,797 kbps     00:50:29.192    43,429 kbps     00:53:40.967    41,645 kbps     00:50:13.844    205,865 bytes   561,395 bytes   00:52:14.381    
10              0:55:37.042     0:07:03.005     39,517 kbps     47,926 kbps     00:56:15.288    42,215 kbps     00:56:19.918    41,381 kbps     00:56:15.038    206,023 bytes   505,124 bytes   00:56:50.740    
11              1:02:40.047     0:04:19.509     39,469 kbps     48,136 kbps     01:03:36.270    43,077 kbps     01:03:44.403    41,271 kbps     01:03:27.303    205,774 bytes   533,680 bytes   01:04:27.446    
12              1:06:59.557     0:06:47.824     39,492 kbps     49,045 kbps     01:10:44.198    44,016 kbps     01:12:36.310    41,850 kbps     01:12:31.347    205,895 bytes   526,261 bytes   01:12:23.839    
13              1:13:47.381     0:04:54.669     39,487 kbps     46,304 kbps     01:17:12.127    41,889 kbps     01:17:08.332    40,509 kbps     01:14:54.573    205,868 bytes   444,209 bytes   01:14:57.493    
14              1:18:42.050     0:07:03.214     39,534 kbps     48,034 kbps     01:22:31.112    42,048 kbps     01:24:18.803    40,908 kbps     01:24:18.553    206,114 bytes   447,404 bytes   01:22:16.264    
15              1:25:45.265     0:02:24.144     39,429 kbps     45,901 kbps     01:26:28.099    41,723 kbps     01:27:48.721    40,595 kbps     01:27:47.720    205,564 bytes   422,045 bytes   01:27:36.459    
16              1:28:09.409     0:08:16.078     39,515 kbps     49,202 kbps     01:29:22.940    43,822 kbps     01:29:20.938    41,731 kbps     01:29:15.224    206,012 bytes   445,239 bytes   01:28:16.374    
17              1:36:25.488     0:02:11.089     39,514 kbps     44,007 kbps     01:38:34.742    42,361 kbps     01:38:31.572    40,576 kbps     01:37:06.320    206,007 bytes   521,410 bytes   01:38:31.780    
18              1:38:36.577     0:05:09.892     39,468 kbps     48,821 kbps     01:41:46.141    42,453 kbps     01:41:45.474    41,855 kbps     01:41:40.385    205,770 bytes   435,966 bytes   01:41:30.751    
19              1:43:46.470     0:05:50.391     39,554 kbps     50,684 kbps     01:46:52.739    44,863 kbps     01:46:52.447    42,204 kbps     01:46:50.153    206,217 bytes   422,865 bytes   01:46:52.781    
20              1:49:36.861     0:03:33.379     39,449 kbps     48,772 kbps     01:52:17.981    44,308 kbps     01:49:55.422    42,145 kbps     01:50:08.977    205,666 bytes   457,357 bytes   01:50:26.661    
21              1:53:10.241     0:06:21.005     39,463 kbps     47,775 kbps     01:58:46.953    42,632 kbps     01:58:05.536    41,563 kbps     01:58:04.786    205,740 bytes   478,341 bytes   01:58:05.787    
22              1:59:31.247     0:04:00.907     39,525 kbps     46,822 kbps     02:01:37.373    42,022 kbps     02:01:36.122    40,842 kbps     02:01:34.453    206,064 bytes   465,424 bytes   02:03:32.113    
23              2:03:32.154     0:06:23.925     39,484 kbps     48,024 kbps     02:07:54.583    43,876 kbps     02:05:52.836    41,376 kbps     02:05:49.625    205,852 bytes   494,532 bytes   02:04:17.992    
24              2:09:56.079     0:00:01.001     34,565 kbps     0 kbps          00:00:00.000    0 kbps          00:00:00.000    0 kbps          00:00:00.000    196,588 bytes   205,934 bytes   02:09:56.121    

STREAM DIAGNOSTICS:

File            PID             Type            Codec           Language                Seconds                 Bitrate                 Bytes           Packets         
----            ---             ----            -----           --------                --------------          --------------          -------------   -----           
00002.M2TS      4113 (0x1011)   0x1B            AVC                                     7796.998                39,500                  38,497,663,266  209,339,223     
00002.M2TS      4352 (0x1100)   0x83            TrueHD          jpn (Japanese)          7796.998                2,295                   2,236,858,756   16,986,582      
00002.M2TS      4608 (0x1200)   0x90            PGS             jpn (Japanese)          7796.998                29                      27,904,248      162,863
Reply With Quote
  #3  
Old 10-13-2009, 08:49 PM
kannisto's Avatar
Senior Member
Thread Starter
 
Join Date: Jan 2007
Posts: 5,590
Default Crows Zero II BD info scan

Code:
                                                                                                                Total   Video                                             
Title                                                           Codec   Length  Movie Size      Disc Size       Bitrate Bitrate Main Audio Track                          Secondary Audio Track
-----                                                           ------  ------- --------------  --------------  ------- ------- ------------------                        ---------------------
(JP) Crows Zero II                                              AVC     2:13:08 44,675,394,624  47,105,575,836  44.74   39.50   Dolby TrueHD 5.1 1711Kbps (48kHz/16-bit)
Code:
DISC INFO:

Disc Title:     CROWS_ZERO_II_BD
Disc Size:      47,105,575,836 bytes
Protection:     AACS
BD-Java:        No
BDInfo:         0.5.2

PLAYLIST REPORT:

Name:                   00002.MPLS
Size:                   44,675,394,624 bytes
Length:                 2:13:08 (h:m:s)
Total Bitrate:          44.74 Mbps
Description:            

VIDEO:

Codec                   Bitrate             Description     
-----                   -------             -----------     
MPEG-4 AVC Video        39499 kbps          1080p / 23.976 fps / 16:9 / High Profile 4.1

AUDIO:

Codec                           Language        Bitrate         Description     
-----                           --------        -------         -----------     
Dolby TrueHD Audio              Japanese        1711 kbps       5.1 / 48 kHz / 1711 kbps / 16-bit (AC3 Core: 5.1 / 48 kHz / 640 kbps)

SUBTITLES:

Codec                           Language        Bitrate         Description     
-----                           --------        -------         -----------     
Presentation Graphics           Japanese        21.850 kbps                     

FILES:

Name            Time In         Length          Size            Total Bitrate   
----            -------         ------          ----            -------------   
00000.M2TS      0:00:00.000     2:13:08.897     44,675,394,624  44,737          

CHAPTERS:

Number          Time In         Length          Avg Video Rate  Max 1-Sec Rate  Max 1-Sec Time  Max 5-Sec Rate  Max 5-Sec Time  Max 10Sec Rate  Max 10Sec Time  Avg Frame Size  Max Frame Size  Max Frame Time  
------          -------         ------          --------------  --------------  --------------  --------------  --------------  --------------  --------------  --------------  --------------  --------------  
1               0:00:00.000     0:02:33.778     39,561 kbps     47,496 kbps     00:02:23.184    42,849 kbps     00:00:37.746    42,270 kbps     00:00:33.742    206,142 bytes   455,303 bytes   00:01:07.442    
2               0:02:33.778     0:07:30.408     39,520 kbps     49,800 kbps     00:04:21.427    43,981 kbps     00:07:21.149    41,804 kbps     00:02:37.031    206,039 bytes   467,254 bytes   00:05:06.139    
3               0:10:04.186     0:06:55.039     39,490 kbps     49,792 kbps     00:13:35.314    44,427 kbps     00:13:32.269    41,807 kbps     00:11:15.841    205,883 bytes   458,892 bytes   00:13:46.492    
4               0:16:59.226     0:06:24.133     39,483 kbps     49,300 kbps     00:21:32.958    44,976 kbps     00:21:31.748    42,159 kbps     00:21:30.789    205,847 bytes   466,719 bytes   00:19:43.557    
5               0:23:23.360     0:04:19.717     39,488 kbps     44,250 kbps     00:26:01.268    41,820 kbps     00:26:00.225    40,934 kbps     00:23:38.250    205,875 bytes   440,111 bytes   00:23:34.329    
6               0:27:43.078     0:06:30.389     39,518 kbps     47,072 kbps     00:28:08.269    42,161 kbps     00:33:51.696    41,038 kbps     00:32:37.997    206,027 bytes   464,649 bytes   00:33:32.552    
7               0:34:13.468     0:02:57.927     39,520 kbps     50,022 kbps     00:36:28.728    44,448 kbps     00:36:33.900    41,577 kbps     00:36:28.728    206,038 bytes   507,494 bytes   00:34:22.977    
8               0:37:11.395     0:06:49.826     39,494 kbps     48,479 kbps     00:39:31.368    43,118 kbps     00:39:46.634    41,712 kbps     00:39:44.048    205,906 bytes   390,143 bytes   00:37:13.356    
9               0:44:01.221     0:04:52.959     39,507 kbps     48,702 kbps     00:47:01.443    41,964 kbps     00:47:30.848    41,067 kbps     00:46:01.341    205,971 bytes   419,452 bytes   00:45:02.241    
10              0:48:54.181     0:05:56.147     39,477 kbps     49,392 kbps     00:50:39.870    44,884 kbps     00:50:39.411    42,158 kbps     00:50:37.409    205,816 bytes   425,747 bytes   00:52:06.414    
11              0:54:50.328     0:04:00.907     39,505 kbps     47,546 kbps     00:57:43.042    42,752 kbps     00:57:42.584    41,807 kbps     00:57:41.875    205,961 bytes   406,055 bytes   00:58:29.964    
12              0:58:51.236     0:04:04.827     39,549 kbps     45,470 kbps     00:59:17.303    42,211 kbps     00:59:12.799    41,603 kbps     00:59:11.130    206,192 bytes   405,340 bytes   00:59:11.881    
13              1:02:56.063     0:04:22.845     39,440 kbps     49,329 kbps     01:05:47.026    44,882 kbps     01:05:43.689    42,096 kbps     01:05:39.560    205,623 bytes   427,797 bytes   01:07:04.729    
14              1:07:18.909     0:07:40.418     39,498 kbps     45,353 kbps     01:07:31.505    42,531 kbps     01:08:34.985    41,965 kbps     01:08:34.819    205,927 bytes   425,786 bytes   01:08:35.236    
15              1:14:59.328     0:06:51.828     39,544 kbps     49,496 kbps     01:15:57.970    42,519 kbps     01:19:20.839    41,295 kbps     01:19:27.554    206,165 bytes   432,752 bytes   01:19:27.888    
16              1:21:51.156     0:05:36.377     39,488 kbps     45,899 kbps     01:22:50.632    42,115 kbps     01:25:12.690    41,628 kbps     01:25:12.315    205,874 bytes   358,594 bytes   01:26:09.289    
17              1:27:27.533     0:04:10.541     39,462 kbps     47,370 kbps     01:28:41.149    44,828 kbps     01:27:36.918    41,544 kbps     01:27:32.163    205,739 bytes   443,444 bytes   01:31:18.473    
18              1:31:38.075     0:07:11.556     39,514 kbps     45,899 kbps     01:32:38.553    42,250 kbps     01:32:36.467    40,942 kbps     01:32:36.467    206,006 bytes   450,782 bytes   01:38:10.301    
19              1:38:49.632     0:04:30.478     39,541 kbps     48,449 kbps     01:41:29.917    42,559 kbps     01:39:42.351    41,372 kbps     01:39:37.346    206,150 bytes   417,057 bytes   01:39:34.259    
20              1:43:20.110     0:08:33.137     39,473 kbps     49,837 kbps     01:43:46.345    44,947 kbps     01:43:46.220    41,586 kbps     01:43:45.761    205,792 bytes   366,021 bytes   01:44:49.992    
21              1:51:53.248     0:07:30.366     39,503 kbps     47,672 kbps     01:54:08.383    42,378 kbps     01:57:38.885    41,537 kbps     01:54:06.381    205,951 bytes   426,741 bytes   01:53:42.148    
22              1:59:23.614     0:06:02.320     39,486 kbps     47,665 kbps     02:00:41.108    43,605 kbps     02:00:37.188    41,438 kbps     02:00:34.018    205,861 bytes   441,560 bytes   02:03:06.462    
23              2:05:25.935     0:03:12.442     39,467 kbps     48,446 kbps     02:08:33.122    42,820 kbps     02:08:29.118    40,955 kbps     02:08:24.113    205,765 bytes   550,518 bytes   02:06:06.934    
24              2:08:38.377     0:04:29.519     39,500 kbps     49,181 kbps     02:12:16.386    43,759 kbps     02:09:32.306    42,164 kbps     02:09:28.886    205,934 bytes   446,030 bytes   02:09:31.722    
25              2:13:07.896     0:00:01.001     34,565 kbps     0 kbps          00:00:00.000    0 kbps          00:00:00.000    0 kbps          00:00:00.000    196,588 bytes   205,934 bytes   02:13:07.938    

STREAM DIAGNOSTICS:

File            PID             Type            Codec           Language                Seconds                 Bitrate                 Bytes           Packets         
----            ---             ----            -----           --------                --------------          --------------          -------------   -----           
00000.M2TS      4113 (0x1011)   0x1B            AVC                                     7988.814                39,500                  39,444,752,481  214,489,512     
00000.M2TS      4352 (0x1100)   0x83            TrueHD          jpn (Japanese)          7988.814                2,351                   2,347,580,800   17,800,466      
00000.M2TS      4608 (0x1200)   0x90            PGS             jpn (Japanese)          7988.814                22                      21,820,158      127,836
Reply With Quote
  #4  
Old 10-14-2009, 02:48 AM
eastx's Avatar
Senior Member
 
Join Date: Jan 2007
Posts: 2,750
Default

How is Yatterman? With Tatsunoko VS. Capcom coming to the US, it'd be great if the movie got a domestic release too.
Reply With Quote
  #5  
Old 10-14-2009, 03:27 AM
kannisto's Avatar
Senior Member
Thread Starter
 
Join Date: Jan 2007
Posts: 5,590
Default

Quote:
Originally Posted by eastx View Post
How is Yatterman? With Tatsunoko VS. Capcom coming to the US, it'd be great if the movie got a domestic release too.
I'll post more impressions on that one after I have managed to watch it. I just got it yesterday. Already watched Crows Zero I & II but not yet Yatterman.

PQ on Yatterman looks very solid anyway.
Reply With Quote
  #6  
Old 10-14-2009, 08:23 PM
kannisto's Avatar
Senior Member
Thread Starter
 
Join Date: Jan 2007
Posts: 5,590
Default Yatterman BD info scan

Code:
                                                                                                                Total   Video                                             
Title                                                           Codec   Length  Movie Size      Disc Size       Bitrate Bitrate Main Audio Track                          Secondary Audio Track
-----                                                           ------  ------- --------------  --------------  ------- ------- ------------------                        ---------------------
(JP) Yatterman                                                  AVC     1:51:21 35,548,053,504  35,757,035,846  42.56   34.86   Dolby TrueHD 5.1 1686Kbps (48kHz/16-bit)  Dolby TrueHD 2.0 759Kbps (48kHz/24-bit)
Code:
DISC INFO:

Disc Title:     YATTER_MAN
Disc Size:      35,757,035,846 bytes
Protection:     AACS
BD-Java:        No
BDInfo:         0.5.2

PLAYLIST REPORT:

Name:                   00000.MPLS
Size:                   35,548,053,504 bytes
Length:                 1:51:21 (h:m:s)
Total Bitrate:          42.56 Mbps
Description:            

VIDEO:

Codec                   Bitrate             Description     
-----                   -------             -----------     
MPEG-4 AVC Video        34860 kbps          1080p / 23.976 fps / 16:9 / High Profile 4.1

AUDIO:

Codec                           Language        Bitrate         Description     
-----                           --------        -------         -----------     
Dolby TrueHD Audio              Japanese        1686 kbps       5.1 / 48 kHz / 1686 kbps / 16-bit (AC3 Core: 5.1 / 48 kHz / 640 kbps)
Dolby TrueHD Audio              Japanese        759 kbps        2.0 / 48 kHz / 759 kbps / 24-bit (AC3 Core: 2.0 / 48 kHz / 640 kbps / Dolby Surround)

SUBTITLES:

Codec                           Language        Bitrate         Description     
-----                           --------        -------         -----------     
Presentation Graphics           Japanese        26.189 kbps                     

FILES:

Name            Time In         Length          Size            Total Bitrate   
----            -------         ------          ----            -------------   
00000.M2TS      0:00:00.000     1:51:21.674     35,548,053,504  42,562          

CHAPTERS:

Number          Time In         Length          Avg Video Rate  Max 1-Sec Rate  Max 1-Sec Time  Max 5-Sec Rate  Max 5-Sec Time  Max 10Sec Rate  Max 10Sec Time  Avg Frame Size  Max Frame Size  Max Frame Time  
------          -------         ------          --------------  --------------  --------------  --------------  --------------  --------------  --------------  --------------  --------------  --------------  
1               0:00:00.000     0:10:43.142     34,429 kbps     54,034 kbps     00:08:50.655    38,813 kbps     00:00:28.236    37,124 kbps     00:03:14.235    179,486 bytes   678,193 bytes   00:08:58.788    
2               0:10:43.142     0:02:08.044     35,091 kbps     48,508 kbps     00:11:39.990    37,511 kbps     00:11:24.266    36,396 kbps     00:12:02.847    182,946 bytes   665,705 bytes   00:10:48.939    
3               0:12:51.187     0:04:30.019     34,728 kbps     45,668 kbps     00:13:00.488    37,457 kbps     00:15:39.563    36,252 kbps     00:15:34.224    181,055 bytes   699,175 bytes   00:13:01.155    
4               0:17:21.206     0:10:56.405     34,900 kbps     52,282 kbps     00:27:31.232    38,851 kbps     00:27:28.605    36,436 kbps     00:27:16.301    181,951 bytes   642,710 bytes   00:26:38.972    
5               0:28:17.612     0:05:28.327     34,899 kbps     57,453 kbps     00:28:50.687    38,287 kbps     00:31:13.830    36,701 kbps     00:28:41.678    181,949 bytes   779,104 bytes   00:28:50.895    
6               0:33:45.940     0:04:46.577     35,125 kbps     46,770 kbps     00:34:43.748    38,006 kbps     00:35:26.833    36,484 kbps     00:38:19.672    183,124 bytes   586,497 bytes   00:35:15.113    
7               0:38:32.518     0:06:18.169     34,801 kbps     51,688 kbps     00:39:49.178    39,266 kbps     00:39:45.007    36,915 kbps     00:39:45.049    181,435 bytes   734,661 bytes   00:42:53.862    
8               0:44:50.688     0:06:14.582     35,122 kbps     46,440 kbps     00:50:05.544    37,481 kbps     00:48:16.643    36,995 kbps     00:44:51.438    183,111 bytes   603,683 bytes   00:47:17.459    
9               0:51:05.270     0:07:35.955     35,065 kbps     46,657 kbps     00:56:49.197    37,749 kbps     00:57:16.433    36,405 kbps     00:57:11.177    182,811 bytes   646,716 bytes   00:52:05.080    
10              0:58:41.226     0:03:43.348     35,010 kbps     43,886 kbps     00:59:23.977    36,701 kbps     01:00:53.441    36,166 kbps     01:02:06.848    182,527 bytes   625,876 bytes   01:02:01.551    
11              1:02:24.574     0:07:17.603     34,992 kbps     55,780 kbps     01:04:49.844    37,490 kbps     01:07:30.838    36,560 kbps     01:07:30.921    182,433 bytes   669,201 bytes   01:05:49.320    
12              1:09:42.178     0:02:57.176     34,477 kbps     50,290 kbps     01:11:02.299    37,745 kbps     01:11:56.979    36,536 kbps     01:12:22.004    179,749 bytes   774,736 bytes   01:09:42.887    
13              1:12:39.354     0:04:35.358     35,096 kbps     50,915 kbps     01:13:56.849    38,615 kbps     01:13:52.845    36,704 kbps     01:13:48.298    182,973 bytes   668,847 bytes   01:12:59.375    
14              1:17:14.713     0:08:25.922     34,946 kbps     57,496 kbps     01:21:48.028    38,565 kbps     01:21:48.028    36,915 kbps     01:21:48.028    182,190 bytes   748,848 bytes   01:21:48.069    
15              1:25:40.635     0:15:26.383     34,935 kbps     48,708 kbps     01:29:12.388    37,931 kbps     01:39:48.065    36,612 kbps     01:39:48.107    182,136 bytes   670,783 bytes   01:32:02.475    
16              1:41:07.019     0:03:43.181     35,019 kbps     42,653 kbps     01:42:43.824    36,968 kbps     01:43:13.520    36,088 kbps     01:42:55.294    182,575 bytes   697,670 bytes   01:42:43.073    
17              1:44:50.200     0:05:20.486     34,875 kbps     50,654 kbps     01:48:11.568    38,450 kbps     01:48:08.023    36,980 kbps     01:49:15.632    181,823 bytes   713,773 bytes   01:49:52.419    
18              1:50:10.687     0:01:09.986     31,863 kbps     46,311 kbps     01:50:36.379    37,686 kbps     01:50:47.223    36,745 kbps     01:50:28.788    166,120 bytes   650,408 bytes   01:51:13.208    
19              1:51:20.674     0:00:01.000     33 kbps         0 kbps          00:00:00.000    0 kbps          00:00:00.000    0 kbps          00:00:00.000    185 bytes       962 bytes       01:51:21.508    

STREAM DIAGNOSTICS:

File            PID             Type            Codec           Language                Seconds                 Bitrate                 Bytes           Packets         
----            ---             ----            -----           --------                --------------          --------------          -------------   -----           
00000.M2TS      4113 (0x1011)   0x1B            AVC                                     6681.592                34,860                  29,115,125,304  158,328,521     
00000.M2TS      4352 (0x1100)   0x83            TrueHD          jpn (Japanese)          6681.592                1,400                   1,168,873,722   11,183,169      
00000.M2TS      4353 (0x1101)   0x83            TrueHD          jpn (Japanese)          6681.592                2,326                   1,942,602,414   15,280,905      
00000.M2TS      4608 (0x1200)   0x90            PGS             jpn (Japanese)          6681.592                26                      21,873,357      129,640
Reply With Quote
  #7  
Old 10-15-2009, 07:04 AM
kannisto's Avatar
Senior Member
Thread Starter
 
Join Date: Jan 2007
Posts: 5,590
Default Crows Zero screencaps #1





Reply With Quote
  #8  
Old 10-15-2009, 07:44 PM
kannisto's Avatar
Senior Member
Thread Starter
 
Join Date: Jan 2007
Posts: 5,590
Default Crows Zero screencaps #2





Reply With Quote
  #9  
Old 10-16-2009, 12:30 AM
kannisto's Avatar
Senior Member
Thread Starter
 
Join Date: Jan 2007
Posts: 5,590
Default Crows Zero II screencaps #1





Reply With Quote
  #10  
Old 10-16-2009, 12:34 AM
kannisto's Avatar
Senior Member
Thread Starter
 
Join Date: Jan 2007
Posts: 5,590
Default Crows Zero II screencaps #2





Reply With Quote
Reply

Related Topics
Thread Thread Starter Forum Replies Last Post
'Fate/Zero Box Set 1' & 'Fate/Zero Box Set 2' are coming in November/December Landy Blu-ray Software General Discussion 0 07-10-2013 01:35 PM
'Crows Zero' is coming March 27 Landy Blu-ray Software General Discussion 0 12-17-2011 10:06 AM
'Counting Crows: August and Everything After' is coming August 30 Landy Blu-ray Software General Discussion 0 07-01-2011 03:36 PM
PBS' 'Echo - An Elephant to Remember' & 'A Murder of Crows' this winter Landy Blu-ray Software General Discussion 0 09-27-2010 10:56 AM
Eagle Rock Bringing Concerts By Jeff Beck, Diana Krall, and Black Crows To BD! Arkadin Blu-ray Software General Discussion 9 06-21-2009 12:01 PM


Thread Tools Search this Thread
Search this Thread:

Advanced Search
Display Modes

Posting Rules
You may not post new threads
You may not post replies
You may not post attachments
You may not edit your posts

BB code is On
Smilies are On
[IMG] code is On
HTML code is Off
Trackbacks are Off
Pingbacks are Off
Refbacks are Off