Hellraiser Trilogy Box (King Records - JP) - High-Def Digest Forums
Reply
 
Thread Tools Search this Thread Display Modes
  #1  
Old 09-11-2011, 09:23 AM
kannisto's Avatar
Senior Member
Thread Starter
 
Join Date: Jan 2007
Posts: 5,590
Default Hellraiser Trilogy Box (King Records - JP)

I got this Hellraiser box release earlier this week from Amazon JP. The discs are region A locked BD-25. Not much in the way of extras (just a bunch of SD trailers and some Japanese audio commentary tracks on each disc and a 12-page booklet with a lot of Japanese text and some pictures).

PQ looks unharmed, 2nd movie is softer than the 1st and 3rd. Grainy and with some scratches and dirt, but very organic look.

Case Pics:




BD Info scans:
Code:
                                                                                                                Total   Video                                             
Title                                                           Codec   Length  Movie Size      Disc Size       Bitrate Bitrate Main Audio Track                          Secondary Audio Track
-----                                                           ------  ------- --------------  --------------  ------- ------- ------------------                        ---------------------
(JP) Hellraiser                                                 AVC     1:33:22 24,267,368,448  24,623,945,724  34.66   27.42   Dolby TrueHD 5.1 1367Kbps (48kHz/16-bit)  Dolby TrueHD 2.0 676Kbps (48kHz/16-bit)
Code:
DISC INFO:

Disc Title:     HELLRAISER_1
Disc Size:      24,623,945,724 bytes
Protection:     AACS
BD-Java:        No
BDInfo:         0.5.6

PLAYLIST REPORT:

Name:                   00000.MPLS
Length:                 1:33:22 (h:m:s)
Size:                   24,267,368,448 bytes
Total Bitrate:          34.66 Mbps

VIDEO:

Codec                   Bitrate             Description     
-----                   -------             -----------     
MPEG-4 AVC Video        27415 kbps          1080p / 23.976 fps / 16:9 / High Profile 4.1

AUDIO:

Codec                           Language        Bitrate         Description     
-----                           --------        -------         -----------     
Dolby TrueHD Audio              English         1367 kbps       5.1 / 48 kHz / 1367 kbps / 16-bit (AC3 Embedded: 5.1 / 48 kHz / 640 kbps)
Dolby TrueHD Audio              English         676 kbps        2.0 / 48 kHz / 676 kbps / 16-bit (AC3 Embedded: 2.0 / 48 kHz / 640 kbps)
Dolby Digital Audio             Japanese        192 kbps        2.0 / 48 kHz / 192 kbps
Dolby Digital Audio             Japanese        224 kbps        1.0 / 48 kHz / 224 kbps

SUBTITLES:

Codec                           Language        Bitrate         Description     
-----                           --------        -------         -----------     
Presentation Graphics           Japanese        45.416 kbps                     
Presentation Graphics           Japanese        0.031 kbps                      

FILES:

Name            Time In         Length          Size            Total Bitrate   
----            -------         ------          ----            -------------   
00000.M2TS      0:00:00.000     1:33:22.013     24,267,368,448  34,655          

CHAPTERS:

Number          Time In         Length          Avg Video Rate  Max 1-Sec Rate  Max 1-Sec Time  Max 5-Sec Rate  Max 5-Sec Time  Max 10Sec Rate  Max 10Sec Time  Avg Frame Size  Max Frame Size  Max Frame Time  
------          -------         ------          --------------  --------------  --------------  --------------  --------------  --------------  --------------  --------------  --------------  --------------  
1               0:00:00.000     0:01:59.118     5,799 kbps      32,135 kbps     00:01:52.403    22,902 kbps     00:01:54.113    17,281 kbps     00:01:49.108    30,221 bytes    392,317 bytes   00:00:04.546    
2               0:01:59.118     0:09:10.633     28,467 kbps     42,813 kbps     00:06:08.409    36,550 kbps     00:06:17.627    35,886 kbps     00:06:12.288    148,415 bytes   446,790 bytes   00:05:05.555    
3               0:11:09.752     0:07:51.929     30,932 kbps     36,085 kbps     00:18:10.506    33,621 kbps     00:12:52.188    32,855 kbps     00:15:02.276    161,265 bytes   328,381 bytes   00:12:08.394    
4               0:19:01.682     0:09:48.546     28,592 kbps     46,133 kbps     00:28:18.488    38,628 kbps     00:25:02.542    36,288 kbps     00:28:10.814    149,065 bytes   396,959 bytes   00:23:38.708    
5               0:28:50.228     0:06:57.375     30,653 kbps     40,190 kbps     00:33:28.631    38,374 kbps     00:33:27.130    37,136 kbps     00:33:26.838    159,808 bytes   430,957 bytes   00:33:29.882    
6               0:35:47.603     0:09:42.498     31,135 kbps     37,466 kbps     00:43:56.008    34,457 kbps     00:43:55.257    34,056 kbps     00:43:55.382    162,324 bytes   387,018 bytes   00:44:06.101    
7               0:45:30.102     0:09:05.878     28,721 kbps     44,901 kbps     00:51:42.265    34,797 kbps     00:50:06.044    33,082 kbps     00:47:48.740    149,736 bytes   415,739 bytes   00:52:02.118    
8               0:54:35.981     0:07:50.344     29,510 kbps     50,209 kbps     00:54:35.981    39,780 kbps     00:54:35.981    35,129 kbps     01:00:51.773    153,850 bytes   408,781 bytes   00:55:56.644    
9               1:02:26.325     0:08:14.619     25,879 kbps     54,381 kbps     01:06:04.585    34,819 kbps     01:09:48.767    34,577 kbps     01:09:44.096    134,922 bytes   505,149 bytes   01:06:04.043    
10              1:10:40.945     0:08:19.832     22,288 kbps     34,130 kbps     01:16:47.352    28,300 kbps     01:15:05.292    27,626 kbps     01:16:41.930    116,201 bytes   304,091 bytes   01:13:59.017    
11              1:19:00.777     0:11:09.627     28,486 kbps     46,040 kbps     01:28:18.793    39,572 kbps     01:28:16.582    36,816 kbps     01:28:13.121    148,513 bytes   381,827 bytes   01:22:23.688    
12              1:30:10.405     0:03:11.608     11,935 kbps     15,436 kbps     01:32:06.270    14,685 kbps     01:32:04.602    14,545 kbps     01:31:58.596    62,238 bytes    249,834 bytes   01:32:01.057    

STREAM DIAGNOSTICS:

File            PID             Type            Codec           Language                Seconds                 Bitrate                 Bytes           Packets         
----            ---             ----            -----           --------                --------------          --------------          -------------   -----           
00000.M2TS      4113 (0x1011)   0x1B            AVC                                     5601.888                27,416                  19,197,653,635  104,413,775     
00000.M2TS      4352 (0x1100)   0x83            TrueHD          eng (English)           5601.888                2,007                   1,405,401,702   10,498,326      
00000.M2TS      4353 (0x1101)   0x83            TrueHD          eng (English)           5601.888                1,316                   921,576,816     9,361,357       
00000.M2TS      4354 (0x1102)   0x81            AC3             jpn (Japanese)          5601.888                224                     156,856,448     875,315         
00000.M2TS      4355 (0x1103)   0x81            AC3             jpn (Japanese)          5601.888                192                     134,448,384     875,315         
00000.M2TS      4608 (0x1200)   0x90            PGS             jpn (Japanese)          5601.888                45                      31,802,624      180,609         
00000.M2TS      4609 (0x1201)   0x90            PGS             jpn (Japanese)          5601.888                0                       21,942          129
Code:
                                                                                                                Total   Video                                             
Title                                                           Codec   Length  Movie Size      Disc Size       Bitrate Bitrate Main Audio Track                          Secondary Audio Track
-----                                                           ------  ------- --------------  --------------  ------- ------- ------------------                        ---------------------
(JP) Hellraiser II                                              AVC     1:39:03 23,089,195,008  23,779,920,068  31.08   24.00   Dolby TrueHD 5.1 1297Kbps (48kHz/16-bit)  Dolby TrueHD 2.0 621Kbps (48kHz/16-bit)
Code:
DISC INFO:

Disc Title:     HELLRAISER_2
Disc Size:      23,779,920,068 bytes
Protection:     AACS
BD-Java:        No
BDInfo:         0.5.6

PLAYLIST REPORT:

Name:                   00000.MPLS
Length:                 1:39:03 (h:m:s)
Size:                   23,089,195,008 bytes
Total Bitrate:          31.08 Mbps

VIDEO:

Codec                   Bitrate             Description     
-----                   -------             -----------     
MPEG-4 AVC Video        23998 kbps          1080p / 23.976 fps / 16:9 / High Profile 4.1

AUDIO:

Codec                           Language        Bitrate         Description     
-----                           --------        -------         -----------     
Dolby TrueHD Audio              English         1297 kbps       5.1 / 48 kHz / 1297 kbps / 16-bit (AC3 Embedded: 5.1 / 48 kHz / 640 kbps)
Dolby TrueHD Audio              English         621 kbps        2.0 / 48 kHz / 621 kbps / 16-bit (AC3 Embedded: 2.0 / 48 kHz / 640 kbps)
Dolby Digital Audio             Japanese        192 kbps        2.0 / 48 kHz / 192 kbps

SUBTITLES:

Codec                           Language        Bitrate         Description     
-----                           --------        -------         -----------     
Presentation Graphics           Japanese        49.613 kbps                     

FILES:

Name            Time In         Length          Size            Total Bitrate   
----            -------         ------          ----            -------------   
00000.M2TS      0:00:00.000     1:39:03.938     23,089,195,008  31,076          

CHAPTERS:

Number          Time In         Length          Avg Video Rate  Max 1-Sec Rate  Max 1-Sec Time  Max 5-Sec Rate  Max 5-Sec Time  Max 10Sec Rate  Max 10Sec Time  Avg Frame Size  Max Frame Size  Max Frame Time  
------          -------         ------          --------------  --------------  --------------  --------------  --------------  --------------  --------------  --------------  --------------  --------------  
1               0:00:00.000     0:03:29.626     9,492 kbps      34,220 kbps     00:00:43.668    27,395 kbps     00:00:53.511    26,422 kbps     00:01:24.667    49,476 bytes    392,992 bytes   00:00:04.504    
2               0:03:29.626     0:10:11.777     24,669 kbps     43,098 kbps     00:03:31.127    33,372 kbps     00:07:41.043    32,027 kbps     00:07:41.210    128,614 bytes   470,918 bytes   00:03:31.628    
3               0:13:41.403     0:10:00.224     22,669 kbps     49,412 kbps     00:22:48.825    37,847 kbps     00:22:48.658    33,599 kbps     00:22:46.156    118,184 bytes   444,239 bytes   00:22:49.701    
4               0:23:41.628     0:10:32.214     23,761 kbps     32,773 kbps     00:27:20.430    28,691 kbps     00:24:42.814    27,605 kbps     00:24:42.772    123,876 bytes   354,489 bytes   00:24:44.191    
5               0:34:13.843     0:08:28.925     27,359 kbps     54,998 kbps     00:41:00.624    36,125 kbps     00:36:33.274    34,446 kbps     00:36:33.149    142,637 bytes   494,004 bytes   00:36:45.036    
6               0:42:42.768     0:10:57.657     24,279 kbps     41,953 kbps     00:51:47.354    37,127 kbps     00:51:55.445    35,764 kbps     00:51:50.941    126,581 bytes   444,870 bytes   00:43:19.013    
7               0:53:40.425     0:06:33.893     23,970 kbps     46,697 kbps     00:54:04.449    37,494 kbps     00:57:26.067    35,596 kbps     00:57:21.062    124,967 bytes   425,076 bytes   00:54:04.491    
8               1:00:14.319     0:05:51.267     25,808 kbps     40,870 kbps     01:04:02.338    35,621 kbps     01:04:34.745    33,124 kbps     01:04:31.325    134,549 bytes   371,015 bytes   01:04:03.923    
9               1:06:05.586     0:11:16.384     24,701 kbps     43,678 kbps     01:10:38.734    35,816 kbps     01:10:34.897    33,278 kbps     01:10:36.106    128,780 bytes   394,606 bytes   01:13:52.177    
10              1:17:21.970     0:08:17.288     27,288 kbps     47,571 kbps     01:24:00.869    39,762 kbps     01:23:59.117    36,721 kbps     01:23:59.117    142,268 bytes   400,911 bytes   01:23:59.534    
11              1:25:39.259     0:10:28.502     26,273 kbps     40,934 kbps     01:29:36.079    35,689 kbps     01:30:04.440    34,181 kbps     01:30:03.606    136,977 bytes   447,486 bytes   01:36:00.254    
12              1:36:07.762     0:02:56.175     9,915 kbps      14,799 kbps     01:37:27.341    14,219 kbps     01:37:25.631    13,874 kbps     01:37:26.340    51,705 bytes    210,390 bytes   01:37:29.343    

STREAM DIAGNOSTICS:

File            PID             Type            Codec           Language                Seconds                 Bitrate                 Bytes           Packets         
----            ---             ----            -----           --------                --------------          --------------          -------------   -----           
00000.M2TS      4113 (0x1011)   0x1B            AVC                                     5943.813                23,999                  17,830,641,207  96,988,933      
00000.M2TS      4352 (0x1100)   0x83            TrueHD          eng (English)           5943.813                1,937                   1,439,028,654   11,996,980      
00000.M2TS      4353 (0x1101)   0x83            TrueHD          eng (English)           5943.813                1,261                   936,782,570     9,935,001       
00000.M2TS      4354 (0x1102)   0x81            AC3             jpn (Japanese)          5943.813                192                     142,654,464     928,740         
00000.M2TS      4608 (0x1200)   0x90            PGS             jpn (Japanese)          5943.813                50                      36,861,908      207,416
Code:
                                                                                                                Total   Video                                             
Title                                                           Codec   Length  Movie Size      Disc Size       Bitrate Bitrate Main Audio Track                          Secondary Audio Track
-----                                                           ------  ------- --------------  --------------  ------- ------- ------------------                        ---------------------
(JP) Hellraiser III                                             AVC     1:33:06 22,675,912,704  22,849,193,800  32.47   28.26   Dolby TrueHD 2.0 756Kbps (48kHz/16-bit)
Code:
DISC INFO:

Disc Title:     HELLRAISER_3
Disc Size:      22,849,193,800 bytes
Protection:     AACS
BD-Java:        No
BDInfo:         0.5.6

PLAYLIST REPORT:

Name:                   00000.MPLS
Length:                 1:33:06 (h:m:s)
Size:                   22,675,912,704 bytes
Total Bitrate:          32.47 Mbps

VIDEO:

Codec                   Bitrate             Description     
-----                   -------             -----------     
MPEG-4 AVC Video        28261 kbps          1080p / 23.976 fps / 16:9 / High Profile 4.1

AUDIO:

Codec                           Language        Bitrate         Description     
-----                           --------        -------         -----------     
Dolby TrueHD Audio              English         756 kbps        2.0 / 48 kHz / 756 kbps / 16-bit (AC3 Embedded: 2.0 / 48 kHz / 640 kbps)
Dolby Digital Audio             Japanese        192 kbps        2.0 / 48 kHz / 192 kbps

SUBTITLES:

Codec                           Language        Bitrate         Description     
-----                           --------        -------         -----------     
Presentation Graphics           Japanese        90.957 kbps                     

FILES:

Name            Time In         Length          Size            Total Bitrate   
----            -------         ------          ----            -------------   
00000.M2TS      0:00:00.000     0:02:24.727     771,643,392     42,653          
00001.M2TS      0:02:24.727     1:30:42.270     21,904,269,312  32,199          

CHAPTERS:

Number          Time In         Length          Avg Video Rate  Max 1-Sec Rate  Max 1-Sec Time  Max 5-Sec Rate  Max 5-Sec Time  Max 10Sec Rate  Max 10Sec Time  Avg Frame Size  Max Frame Size  Max Frame Time  
------          -------         ------          --------------  --------------  --------------  --------------  --------------  --------------  --------------  --------------  --------------  --------------  
1               0:00:00.000     0:02:24.727     38,127 kbps     58,896 kbps     00:00:00.583    42,434 kbps     00:02:06.167    40,217 kbps     00:02:01.162    198,722 bytes   592,092 bytes   00:00:01.459    
2               0:02:24.727     0:07:49.635     32,233 kbps     43,914 kbps     00:03:58.863    42,110 kbps     00:05:19.152    40,565 kbps     00:05:17.233    168,049 bytes   400,353 bytes   00:05:21.279    
3               0:10:14.363     0:09:45.876     32,315 kbps     50,021 kbps     00:19:15.904    41,680 kbps     00:13:04.700    38,428 kbps     00:19:14.653    168,476 bytes   526,399 bytes   00:13:08.913    
4               0:20:00.240     0:08:13.493     32,029 kbps     47,159 kbps     00:26:53.945    42,604 kbps     00:26:52.152    39,586 kbps     00:26:51.901    166,983 bytes   402,904 bytes   00:26:53.862    
5               0:28:13.733     0:08:05.735     29,276 kbps     51,643 kbps     00:28:24.786    41,749 kbps     00:28:23.493    38,201 kbps     00:34:37.116    152,634 bytes   449,638 bytes   00:34:44.332    
6               0:36:19.468     0:07:20.523     28,630 kbps     62,222 kbps     00:43:21.223    41,952 kbps     00:43:21.223    37,360 kbps     00:43:21.223    149,264 bytes   447,573 bytes   00:42:20.829    
7               0:43:39.992     0:09:12.969     27,733 kbps     52,453 kbps     00:48:02.504    40,439 kbps     00:48:01.461    39,192 kbps     00:49:48.235    144,586 bytes   536,121 bytes   00:50:50.839    
8               0:52:52.961     0:09:26.232     25,367 kbps     58,344 kbps     00:55:20.942    42,044 kbps     00:57:51.718    38,254 kbps     00:57:47.088    132,254 bytes   422,210 bytes   00:56:20.627    
9               1:02:19.193     0:10:37.762     27,089 kbps     53,192 kbps     01:08:16.300    40,502 kbps     01:02:43.551    37,148 kbps     01:08:15.090    141,230 bytes   403,621 bytes   01:11:24.697    
10              1:12:56.955     0:07:22.900     26,713 kbps     52,984 kbps     01:19:44.070    41,901 kbps     01:19:42.777    37,267 kbps     01:19:40.150    139,267 bytes   570,078 bytes   01:19:44.362    
11              1:20:19.856     0:08:06.652     28,784 kbps     45,072 kbps     01:25:32.252    40,594 kbps     01:28:01.317    37,531 kbps     01:25:26.412    150,066 bytes   438,424 bytes   01:27:57.897    
12              1:28:26.509     0:04:40.488     10,169 kbps     14,941 kbps     01:32:08.064    14,241 kbps     01:32:06.062    13,699 kbps     01:32:03.267    53,024 bytes    206,923 bytes   01:32:52.984    

STREAM DIAGNOSTICS:

File            PID             Type            Codec           Language                Seconds                 Bitrate                 Bytes           Packets         
----            ---             ----            -----           --------                --------------          --------------          -------------   -----           
00000.M2TS      4113 (0x1011)   0x1B            AVC                                     144.645                 38,145                  689,682,469     3,749,529       
00000.M2TS      4352 (0x1100)   0x83            TrueHD          eng (English)           144.645                 1,319                   23,847,562      241,947         
00000.M2TS      4353 (0x1101)   0x81            AC3             jpn (Japanese)          144.645                 192                     3,473,664       22,615          
00000.M2TS      4608 (0x1200)   0x90            PGS             jpn (Japanese)          144.645                 0                       597             10              
00001.M2TS      4113 (0x1011)   0x1B            AVC                                     5442.103                28,000                  19,047,050,657  103,592,949     
00001.M2TS      4352 (0x1100)   0x83            TrueHD          eng (English)           5442.103                1,398                   950,751,632     9,103,052       
00001.M2TS      4353 (0x1101)   0x81            AC3             jpn (Japanese)          5442.103                192                     130,614,528     850,355         
00001.M2TS      4608 (0x1200)   0x90            PGS             jpn (Japanese)          5442.103                93                      63,521,391      356,059
Reply With Quote
  #2  
Old 09-11-2011, 09:25 AM
kannisto's Avatar
Senior Member
Thread Starter
 
Join Date: Jan 2007
Posts: 5,590
Default Hellraiser screencaps





Reply With Quote
  #3  
Old 09-11-2011, 09:26 AM
kannisto's Avatar
Senior Member
Thread Starter
 
Join Date: Jan 2007
Posts: 5,590
Default Hellraiser II screencaps





Reply With Quote
  #4  
Old 09-11-2011, 09:26 AM
kannisto's Avatar
Senior Member
Thread Starter
 
Join Date: Jan 2007
Posts: 5,590
Default Hellraiser III screencaps





Reply With Quote
  #5  
Old 09-11-2011, 12:36 PM
cheez avenger's Avatar
Senior Member
 
Join Date: Dec 2007
Posts: 13,694
Default

Do you know if Hellraiser III is the UNRATED cut?
Reply With Quote
  #6  
Old 09-11-2011, 10:35 PM
REDBULL74's Avatar
Senior Member
 
Join Date: Jan 2008
Posts: 1,075
Default

Hmmm............very interesting. I haven't bought the recently released Hellraiser II Hellbound US disc yet, so I might get this set. I really like the box art. I agree with Cheez, is 3 the uncut version??
Reply With Quote
  #7  
Old 09-12-2011, 10:58 AM
Senior Member
 
Join Date: Jan 2008
Posts: 2,195
Default

Hellraiser III is the 93 minute R rated cut (not the 91 minute R rated cut). Kannisto confirmed this on another forum.
Reply With Quote
  #8  
Old 09-12-2011, 05:12 PM
cheez avenger's Avatar
Senior Member
 
Join Date: Dec 2007
Posts: 13,694
Default

Quote:
Originally Posted by Jester217300 View Post
Hellraiser III is the 93 minute R rated cut (not the 91 minute R rated cut). Kannisto confirmed this on another forum.
93 minute R rated cut? You mean Unrated?
Reply With Quote
  #9  
Old 09-12-2011, 05:30 PM
Noibeli's Avatar
Senior Member
 
Join Date: Feb 2010
Posts: 437
Default

Thanks Kannisto for the nice pictures!

Hellraiser 1:

Running time Japan Edition: 93 min. approx. (25 GB)
Running time Austria Editon: 97 min. approx. (50 GB)

Seen here:

http://www.dvdfsk18.at/shop/product_...ducts_id=27049

Hellraiser 2:

Running time Japan Edition: 99 min. approx. (25 GB)
Running time Austria Editon: 103 min. approx. (50 GB)

Seen here:

http://www.dvdfsk18.at/shop/product_...ducts_id=27052

Not sure, are the Japanese Editions both cut at least? BTW, unrated doesn't mean UNCUT as far as I know.

Last edited by Noibeli; 09-12-2011 at 06:13 PM.
Reply With Quote
  #10  
Old 09-13-2011, 08:44 AM
Senior Member
 
Join Date: Jan 2008
Posts: 2,195
Default

Quote:
Originally Posted by cheez avenger View Post
93 minute R rated cut? You mean Unrated?
No, the true uncut version is 97 min. Via McCrutchy on BD.com:

Quote:
Just to be clear here, the true uncut version of III would approx 96-97 minutes long in NTSC or 1080p and has only been released on LaserDisc in the USA and as part of the Anchor Bay UK DVDs from 2004 (it has a PAL running time of 92:34).

There is confusion because, apparently in 2006, Paramount refused to release the uncut version and insisted on releasing the R-rated version, which is 91 minutes long in NTSC. Apparently, there was some sort of error, and the initial pressings of the disc had a 93 minute version. restoring two minutes of footage. Paramount apparently pulled the title some months after release when this was discovered and re-released the proper 91 minute R-rated version, but not before a huge quantity of DVDs had been sold.

My bet is that III is either the 91 or 93 minute version and not the full uncut 97 minute version.
Reply With Quote
Reply

Related Topics
Thread Thread Starter Forum Replies Last Post
'Hellraiser: The Scarlet Box Limited Edition Trilogy' - High-Def Digest Review Attebery Blu-ray Software General Discussion 11 01-03-2017 08:37 AM
'Hellraiser: The Scarlet Box Limited Edition Trilogy' is coming December 13 scohen Blu-ray Software General Discussion 8 10-19-2016 09:12 AM
Hellraiser getting a reboot:Hellraiser Revelations CaptainCanuck Film Forum 20 10-21-2010 04:25 PM
Higanjima (Japan - King Records) (No English) kannisto Blu-ray Imports Subforum 4 06-10-2010 05:19 AM
'Hellraiser Puzzle Box' - High-Def Digest Review Attebery Blu-ray Software General Discussion 26 04-21-2009 10:39 AM


Thread Tools Search this Thread
Search this Thread:

Advanced Search
Display Modes

Posting Rules
You may not post new threads
You may not post replies
You may not post attachments
You may not edit your posts

BB code is On
Smilies are On
[IMG] code is On
HTML code is Off
Trackbacks are Off
Pingbacks are Off
Refbacks are Off