Reply 
Results 1 to 8 of 8
  1. #1
    Join Date
    Jan 2007
    Location
    Tokyo, Japan
    Posts
    5,590

    Default Sion Sono's Himizu and Love Exposure (JP releases) [Eng subs]


    I got a package from Amazon JP with both Himizu and Love Exposure and was happy to find that both of them have English subs, and they are region free as well.

    Here come the details, more coming up shortly.

    Amazon JP:
    2012/07/03 4,469 Himizu (Collector's Edition) -- PONYC
    2012/07/06 4,506 Love Exposure -- AMUSE

    Case Pics:




    Himizu trailer:


    Love Exposure trailer:


    Himizu BD Info scan:
    Code:
                                                                                                                    Total   Video                                             
    Title                                                           Codec   Length  Movie Size      Disc Size       Bitrate Bitrate Main Audio Track                          Secondary Audio Track
    -----                                                           ------  ------- --------------  --------------  ------- ------- ------------------                        ---------------------
    (JP) Himizu                                                     AVC     2:10:11 33,036,103,680  47,315,314,900  33.83   25.97   DTS-HD Master 5.1 3879Kbps (48kHz/24-bit) DTS-HD Master 2.0 1750Kbps (48kHz/16-bit)
    Code:
    DISC INFO:
    
    Disc Title:     PCXE_50191
    Disc Size:      47,315,314,900 bytes
    Protection:     AACS
    BD-Java:        No
    BDInfo:         0.5.6
    
    PLAYLIST REPORT:
    
    Name:                   00000.MPLS
    Length:                 2:10:11 (h:m:s)
    Size:                   33,036,103,680 bytes
    Total Bitrate:          33.83 Mbps
    
    VIDEO:
    
    Codec                   Bitrate             Description     
    -----                   -------             -----------     
    MPEG-4 AVC Video        25970 kbps          1080p / 23.976 fps / 16:9 / High Profile 4.1
    
    AUDIO:
    
    Codec                           Language        Bitrate         Description     
    -----                           --------        -------         -----------     
    DTS-HD Master Audio             Japanese        3879 kbps       5.1 / 48 kHz / 3879 kbps / 24-bit (DTS Core: 5.1 / 48 kHz / 1509 kbps / 24-bit)
    DTS-HD Master Audio             Japanese        1750 kbps       2.0 / 48 kHz / 1750 kbps / 16-bit (DTS Core: 2.0 / 48 kHz / 1509 kbps / 16-bit)
    
    SUBTITLES:
    
    Codec                           Language        Bitrate         Description     
    -----                           --------        -------         -----------     
    Presentation Graphics           English         149.686 kbps                    
    Presentation Graphics           Japanese        139.889 kbps                    
    
    FILES:
    
    Name            Time In         Length          Size            Total Bitrate   
    ----            -------         ------          ----            -------------   
    00000.M2TS      0:00:00.000     2:10:11.512     33,036,103,680  33,833          
    
    CHAPTERS:
    
    Number          Time In         Length          Avg Video Rate  Max 1-Sec Rate  Max 1-Sec Time  Max 5-Sec Rate  Max 5-Sec Time  Max 10Sec Rate  Max 10Sec Time  Avg Frame Size  Max Frame Size  Max Frame Time  
    ------          -------         ------          --------------  --------------  --------------  --------------  --------------  --------------  --------------  --------------  --------------  --------------  
    1               0:00:00.000     0:09:49.213     24,303 kbps     34,993 kbps     00:01:56.908    31,872 kbps     00:01:56.324    31,644 kbps     00:01:56.449    126,696 bytes   448,880 bytes   00:02:47.417    
    2               0:09:49.213     0:08:55.993     26,428 kbps     40,447 kbps     00:13:26.680    38,134 kbps     00:13:26.555    37,614 kbps     00:13:24.637    137,785 bytes   595,612 bytes   00:14:46.635    
    3               0:18:45.207     0:08:54.492     28,694 kbps     43,237 kbps     00:25:01.500    38,871 kbps     00:24:57.496    37,450 kbps     00:24:38.685    149,597 bytes   570,452 bytes   00:25:48.421    
    4               0:27:39.699     0:07:59.353     24,886 kbps     40,363 kbps     00:28:16.653    38,020 kbps     00:28:12.607    37,871 kbps     00:28:07.602    129,744 bytes   606,655 bytes   00:28:02.639    
    5               0:35:39.053     0:05:58.900     25,648 kbps     39,154 kbps     00:38:03.447    37,213 kbps     00:37:17.026    36,599 kbps     00:37:16.525    133,716 bytes   576,027 bytes   00:37:46.722    
    6               0:41:37.953     0:05:06.848     27,091 kbps     41,812 kbps     00:45:37.276    36,971 kbps     00:46:13.604    34,735 kbps     00:46:10.058    141,240 bytes   525,499 bytes   00:46:14.646    
    7               0:46:44.801     0:07:30.450     23,203 kbps     34,392 kbps     00:50:33.530    31,842 kbps     00:47:53.829    30,774 kbps     00:47:51.535    120,970 bytes   399,004 bytes   00:49:35.472    
    8               0:54:15.252     0:06:30.139     26,893 kbps     39,942 kbps     00:59:09.921    36,731 kbps     00:55:48.678    34,676 kbps     00:59:05.416    140,209 bytes   495,239 bytes   00:54:56.626    
    9               1:00:45.391     0:12:11.147     27,727 kbps     41,076 kbps     01:12:43.776    38,206 kbps     01:12:39.813    37,911 kbps     01:12:35.768    144,556 bytes   474,442 bytes   01:12:32.222    
    10              1:12:56.538     0:12:27.955     26,329 kbps     40,235 kbps     01:23:27.919    38,080 kbps     01:23:33.591    37,199 kbps     01:25:00.762    137,269 bytes   550,740 bytes   01:15:27.773    
    11              1:25:24.494     0:07:41.544     25,736 kbps     39,192 kbps     01:33:05.037    37,960 kbps     01:33:01.033    35,016 kbps     01:27:33.164    134,173 bytes   594,852 bytes   01:29:29.655    
    12              1:33:06.038     0:05:23.031     24,900 kbps     36,817 kbps     01:37:36.559    32,633 kbps     01:36:52.223    30,295 kbps     01:36:50.221    129,818 bytes   394,008 bytes   01:33:31.147    
    13              1:38:29.069     0:10:13.571     24,421 kbps     38,858 kbps     01:45:27.612    37,137 kbps     01:38:49.840    34,329 kbps     01:38:46.962    127,318 bytes   613,870 bytes   01:48:09.524    
    14              1:48:42.641     0:06:37.396     24,823 kbps     38,147 kbps     01:50:00.635    35,356 kbps     01:49:57.299    34,528 kbps     01:51:11.998    129,416 bytes   506,965 bytes   01:48:57.781    
    15              1:55:20.038     0:06:17.627     25,554 kbps     33,017 kbps     01:58:36.109    31,961 kbps     01:58:32.105    31,750 kbps     01:58:24.138    133,229 bytes   444,227 bytes   01:58:22.220    
    16              2:01:37.665     0:08:31.969     27,798 kbps     39,256 kbps     02:04:48.063    38,015 kbps     02:05:07.583    37,912 kbps     02:05:02.536    144,925 bytes   394,234 bytes   02:08:01.340    
    17              2:10:09.635     0:00:01.876     17,901 kbps     18,747 kbps     02:10:10.093    0 kbps          00:00:00.000    0 kbps          00:00:00.000    95,450 bytes    198,114 bytes   02:10:10.135    
    
    STREAM DIAGNOSTICS:
    
    File            PID             Type            Codec           Language                Seconds                 Bitrate                 Bytes           Packets         
    ----            ---             ----            -----           --------                --------------          --------------          -------------   -----           
    00000.M2TS      4113 (0x1011)   0x1B            AVC                                     7811.345                25,970                  25,357,958,646  137,924,090     
    00000.M2TS      4352 (0x1100)   0x86            DTS-HD MA       jpn (Japanese)          7811.345                3,879                   3,787,122,460   21,805,416      
    00000.M2TS      4353 (0x1101)   0x86            DTS-HD MA       jpn (Japanese)          7811.345                1,750                   1,709,065,604   10,478,343      
    00000.M2TS      4608 (0x1200)   0x90            PGS             eng (English)           7811.345                150                     146,158,891     821,176         
    00000.M2TS      4609 (0x1201)   0x90            PGS             jpn (Japanese)          7811.345                140                     136,593,427     772,286
    Love Exposure BD Info scan:
    Code:
                                                                                                                    Total   Video                                             
    Title                                                           Codec   Length  Movie Size      Disc Size       Bitrate Bitrate Main Audio Track                          Secondary Audio Track
    -----                                                           ------  ------- --------------  --------------  ------- ------- ------------------                        ---------------------
    (JP) Love Exposure                                              AVC     3:56:35 46,702,417,920  46,812,659,016  26.32   22.49   DTS-HD Master 5.1 2245Kbps (48kHz/16-bit)
    Code:
    DISC INFO:
    
    Disc Title:     ASBD_1051
    Disc Size:      46,812,659,016 bytes
    Protection:     AACS
    BD-Java:        No
    BDInfo:         0.5.6
    
    PLAYLIST REPORT:
    
    Name:                   00000.MPLS
    Length:                 3:56:35 (h:m:s)
    Size:                   46,702,417,920 bytes
    Total Bitrate:          26.32 Mbps
    
    VIDEO:
    
    Codec                   Bitrate             Description     
    -----                   -------             -----------     
    MPEG-4 AVC Video        22494 kbps          1080p / 23.976 fps / 16:9 / High Profile 4.1
    
    AUDIO:
    
    Codec                           Language        Bitrate         Description     
    -----                           --------        -------         -----------     
    DTS-HD Master Audio             Japanese        2245 kbps       5.1 / 48 kHz / 2245 kbps / 16-bit (DTS Core: 5.1 / 48 kHz / 1509 kbps / 16-bit)
    
    SUBTITLES:
    
    Codec                           Language        Bitrate         Description     
    -----                           --------        -------         -----------     
    Presentation Graphics           English         179.247 kbps                    
    
    FILES:
    
    Name            Time In         Length          Size            Total Bitrate   
    ----            -------         ------          ----            -------------   
    00000.M2TS      0:00:00.000     2:25:23.005     28,761,268,224  26,377          
    00001.M2TS      2:25:23.005     1:31:12.467     17,941,149,696  26,228          
    
    CHAPTERS:
    
    Number          Time In         Length          Avg Video Rate  Max 1-Sec Rate  Max 1-Sec Time  Max 5-Sec Rate  Max 5-Sec Time  Max 10Sec Rate  Max 10Sec Time  Avg Frame Size  Max Frame Size  Max Frame Time  
    ------          -------         ------          --------------  --------------  --------------  --------------  --------------  --------------  --------------  --------------  --------------  --------------  
    1               0:00:00.000     0:00:35.452     10,409 kbps     17,115 kbps     00:00:00.709    13,638 kbps     00:00:00.709    12,236 kbps     00:00:00.709    54,203 bytes    219,280 bytes   00:00:09.676    
    2               0:00:35.452     0:19:01.807     20,311 kbps     31,504 kbps     00:11:40.157    27,966 kbps     00:05:42.717    26,505 kbps     00:13:34.855    105,893 bytes   337,624 bytes   00:14:47.553    
    3               0:19:37.259     0:20:32.064     23,389 kbps     39,840 kbps     00:24:46.443    32,845 kbps     00:25:44.501    30,532 kbps     00:26:17.742    121,939 bytes   365,919 bytes   00:33:57.744    
    4               0:40:09.323     0:18:13.300     22,991 kbps     40,128 kbps     00:44:31.210    38,101 kbps     00:44:27.706    35,169 kbps     00:44:24.870    119,865 bytes   434,630 bytes   00:58:18.953    
    5               0:58:22.624     0:00:12.345     14,792 kbps     29,652 kbps     00:58:31.508    22,003 kbps     00:58:29.964    15,834 kbps     00:58:24.959    77,119 bytes    270,990 bytes   00:58:29.047    
    6               0:58:34.969     0:09:02.166     21,546 kbps     33,594 kbps     01:07:30.171    27,175 kbps     01:07:29.587    26,075 kbps     01:06:27.566    112,328 bytes   400,921 bytes   00:58:41.601    
    7               1:07:37.136     0:21:48.765     23,418 kbps     40,117 kbps     01:08:20.638    39,735 kbps     01:08:07.374    39,481 kbps     01:08:02.578    122,089 bytes   356,150 bytes   01:07:42.099    
    8               1:29:25.902     0:17:02.229     22,345 kbps     37,594 kbps     01:33:31.230    36,507 kbps     01:33:27.018    31,873 kbps     01:33:23.306    116,498 bytes   381,722 bytes   01:46:19.331    
    9               1:46:28.131     0:14:37.543     22,230 kbps     32,035 kbps     01:49:23.223    29,987 kbps     01:49:22.681    28,749 kbps     01:49:22.681    115,895 bytes   284,417 bytes   01:52:34.581    
    10              2:01:05.675     0:24:17.330     23,227 kbps     32,336 kbps     02:22:13.483    31,208 kbps     02:22:11.356    30,056 kbps     02:16:23.884    121,096 bytes   290,498 bytes   02:18:34.597    
    11              2:25:23.005     0:14:55.394     23,367 kbps     40,539 kbps     02:39:51.540    39,691 kbps     02:39:50.038    34,992 kbps     02:39:50.038    121,826 bytes   346,287 bytes   02:32:41.360    
    12              2:40:18.400     0:17:54.156     22,117 kbps     32,178 kbps     02:44:51.506    31,087 kbps     02:44:42.247    31,006 kbps     02:44:43.623    115,308 bytes   291,165 bytes   02:43:45.398    
    13              2:58:12.556     0:18:00.162     22,753 kbps     33,345 kbps     03:11:40.113    27,983 kbps     03:15:00.438    27,409 kbps     03:14:54.974    118,626 bytes   360,766 bytes   03:11:48.788    
    14              3:16:12.719     0:13:35.648     23,230 kbps     33,838 kbps     03:21:42.048    31,126 kbps     03:29:18.045    27,551 kbps     03:29:15.251    121,111 bytes   294,966 bytes   03:19:49.560    
    15              3:29:48.367     0:22:39.399     23,840 kbps     40,446 kbps     03:48:22.897    36,547 kbps     03:48:31.697    34,491 kbps     03:48:26.692    124,293 bytes   350,854 bytes   03:48:22.980    
    16              3:52:27.767     0:04:05.703     9,995 kbps      16,976 kbps     03:56:30.718    11,355 kbps     03:56:26.714    10,627 kbps     03:52:43.574    52,107 bytes    220,184 bytes   03:55:47.967    
    17              3:56:33.470     0:00:02.002     9,946 kbps      9,950 kbps      03:56:34.430    0 kbps          00:00:00.000    0 kbps          00:00:00.000    52,957 bytes    208,332 bytes   03:56:34.263    
    
    STREAM DIAGNOSTICS:
    
    File            PID             Type            Codec           Language                Seconds                 Bitrate                 Bytes           Packets         
    ----            ---             ----            -----           --------                --------------          --------------          -------------   -----           
    00000.M2TS      4113 (0x1011)   0x1B            AVC                                     8722.839                22,495                  24,527,911,909  133,425,780     
    00000.M2TS      4352 (0x1100)   0x86            DTS-HD MA       jpn (Japanese)          8722.839                2,286                   2,492,763,316   14,901,005      
    00000.M2TS      4608 (0x1200)   0x90            PGS             eng (English)           8722.839                193                     210,556,534     1,179,224       
    00001.M2TS      4113 (0x1011)   0x1B            AVC                                     5472.300                22,493                  15,386,335,969  83,697,683      
    00001.M2TS      4352 (0x1100)   0x86            DTS-HD MA       jpn (Japanese)          5472.300                2,178                   1,489,973,992   8,960,682       
    00001.M2TS      4608 (0x1200)   0x90            PGS             eng (English)           5472.300                157                     107,504,782     601,780
    Last edited by kannisto; 07-07-2012 at 01:41 AM.
  2. #2
    Join Date
    Jan 2007
    Location
    Tokyo, Japan
    Posts
    5,590

    Default Love Exposure screencaps #1






  3. #3
    Join Date
    Jan 2007
    Location
    Tokyo, Japan
    Posts
    5,590

    Default Love Exposure screencaps #2






  4. #4
    Join Date
    Jan 2007
    Location
    Tokyo, Japan
    Posts
    5,590

    Default Himizu screencaps #1




  5. #5
    Join Date
    Jan 2007
    Location
    Tokyo, Japan
    Posts
    5,590

    Default Himizu screencaps #2




  6. #6
    Thanks for posting. I'm guessing Himizu was pretty expensive? The packaging looks pretty nice, but I think I might wait for the UK versions.
  7. #7
    Join Date
    Jan 2007
    Location
    Tokyo, Japan
    Posts
    5,590
    Yes, I paid 4469 yen for Himizu (free domestic shipping from Amazon JP). UK releases will certainly be cheaper than these Japanese editions.
  8. #8
    please, dear sir, is there any hope you might rip the subs for Himizu and share them?

Posting Permissions

  • You may not post new threads
  • You may not post replies
  • You may not post attachments
  • You may not edit your posts